Happy feet [DVDRip Animacion Castellano 2006 .Avi US & FJ] - Hagale Pues
Header Hágale Pues
Retroceder   Hagale Pues » Foros de conversación » Basura de Hagalepues
Portal Foro Temas de Hoy Registrarse Buscar




Happy feet [DVDRip Animacion Castellano 2006 .Avi US & FJ]



Tema Cerrado
Herramientas
Antiguo 16/12/11, 18:41:17   #1
Baneado
 
Fecha de Ingreso: nov 2011
Ubicación: En las peliculas
Mensajes: 740
Temas: 726
Has agradecido: 0
Has sido agradecido 6 veces en 6 mensajes
Poder de Credibilidad: 0
O2312 es como un diamante en brutoO2312 es como un diamante en brutoO2312 es como un diamante en brutoO2312 es como un diamante en bruto
Reputación: 335
Predeterminado Happy feet [DVDRip Animacion Castellano 2006 .Avi US & FJ]





Información del archivo en el servidor
Partes: 3
Servidores: US & FJ
Tamaño: 700 Mb

Sinopsis
Happy Feet se centra en la historia de un pingüino emperador, Mumble, el cual a diferencia
de todos los de su epsecie nace sin el don de cantar. en cambio, posee un gran talenato
para el baile, hecho que no es muy bien aceptado entre la colonia. Este hecho le
impide atreverse a declarar su amor por Gloria, en consecuencia decide irse.

Caps





Ficha Tenica

título: Happy feet, rompiendo el hielo
Título original: Happy feet
Dirección: George Miller,
Warren Coleman, Judy Morris
País: Estados Unidos, Australia
Año: 2006
Fecha de estreno: 05/12/2006
Duración: 109 min.
Género: Comedia, Musical,
Familiar, Animación, Aventuras
Reparto: Carlos Alazraqui,
Lombardo Boyar, Jeffrey Garcia,
Johnny A. Sanchez, Robin Williams,
Elijah Wood, Brittany Murphy,
Hugh Jackman, Nicole Kidman,
Hugo Weaving
Productora: Kennedy Miller

Datos de ripeo

General

Complete name : files/O2312HAPPYFEETCASTELLANO.avi
Format : AVI
Format/Info : Audio Video Interleave
File size : 700 MiB
Duration : 1h 44mn
Overall bit rate : 941 Kbps
Writing application : VirtualDubMod 1.5.10.2 (build 2540/release)
Writing library : VirtualDubMod build 2540/release

Video

ID : 0
Format : MPEG-4 Visual
Format profile : Advanced Simple@L5
Format settings, BVOP : No
Format settings, QPel : No
Format settings, GMC : No warppoints
Format settings, Matrix : Default (H.263)
Codec ID : XVID
Codec ID/Hint : XviD
Duration : 1h 44mn
Bit rate : 803 Kbps
Width : 624 pixels
Height : 256 pixels
Display aspect ratio : 2.40:1
Frame rate : 25.000 fps
Color space : YUV
Chroma subsampling : 4:2:0
Bit depth : 8 bits
Scan type : Progressive
Bits/(Pixel*Frame) : 0.201
Stream size : 597 MiB (85%)
Writing library : XviD 1.0.3 (UTC 2004-12-20)

Audio

ID : 1
Format : MPEG Audio
Format version : Version 1
Format profile : Layer 3
Mode : Joint stereo
Mode extension : MS Stereo
Codec ID : 55
Codec ID/Hint : MP3
Duration : 1h 44mn
Bit rate mode : Constant
Bit rate : 128 Kbps
Channel(s) : 2 channels
Sampling rate : 48.0 KHz
Stream size : 95.3 MiB (14%)
Alignment : Aligned on interleaves
Interleave, duration : 40 ms (1.00 video frame)
Interleave, preload duration : 504 ms

Descarga
US & FJ

Servidor #1

Parte 1
http://www.filejungle.com/f/XACdRd/O....avi.part1.rar
Parte 2
http://www.filejungle.com/f/PRbxcp/O....avi.part2.rar
Parte 3
http://www.filejungle.com/f/hSDyYv/O....avi.part3.rar

Servidor #2

Parte 1
http://www.uploadstation.com/file/5p....avi.part1.rar
Parte 2
http://www.uploadstation.com/file/Eu....avi.part2.rar
Parte 3
http://www.uploadstation.com/file/hg....avi.part3.rar

Nota: Si encuentras un link caído avísame para volverlo a subir




O2312 esta offline  
Antiguo 22/06/12, 19:59:59   #2
Moderador:
Zona Audiovisual
 
Avatar de jheialcazador
 
Fecha de Ingreso: mar 2012
Ubicación: BOGOTA
Edad: 23
Mensajes: 871
Temas: 242
Has agradecido: 1.575
Has sido agradecido 1.552 veces en 361 mensajes
Poder de Credibilidad: 3776
jheialcazador tiene una reputación que sobrepasa la famajheialcazador tiene una reputación que sobrepasa la famajheialcazador tiene una reputación que sobrepasa la famajheialcazador tiene una reputación que sobrepasa la famajheialcazador tiene una reputación que sobrepasa la famajheialcazador tiene una reputación que sobrepasa la famajheialcazador tiene una reputación que sobrepasa la famajheialcazador tiene una reputación que sobrepasa la famajheialcazador tiene una reputación que sobrepasa la famajheialcazador tiene una reputación que sobrepasa la famajheialcazador tiene una reputación que sobrepasa la fama
Reputación: 188140
Predeterminado Re: Happy feet [DVDRip Animacion Castellano 2006 .Avi US & FJ]

El archivo no está disponible



__________________

DEJA TU GRANITO DE ARENA EN DÁ LAS GRACIAS
Dale Me gusta
Me puedes Seguir
jheialcazador esta offline  
Tema Cerrado

Etiquetas
2006, animacion, avi, castellano, dvdrip, feet, fj, happy


Usuarios activos actualmente viendo este tema: 1 (0 miembros y 1 visitantes)
 
Herramientas
Desplegado



El uso horario es GMT -5. La hora actual es: 20:37:51
Powered by vBulletin™ Version 3.8.6
Copyright © 2014 vBulletin Solutions, Inc. All rights reserved.
Traducción por vBHispano
vBulletin Skin by CompletevB
HagalePues.Net 2008 - 2014
SEO by vBSEO ©2011, Crawlability, Inc.