Halowen con shrek [DVDRip Animacion Castellano 2010 .Avi US & FJ] - Hagale Pues
Header Hágale Pues
Retroceder   Hagale Pues » Foros de conversación » Basura de Hagalepues
Portal Foro Temas de Hoy Registrarse Buscar




Halowen con shrek [DVDRip Animacion Castellano 2010 .Avi US & FJ]



Tema Cerrado
Herramientas
Antiguo 16/12/11, 18:35:16   #1
Baneado
 
Fecha de Ingreso: nov 2011
Ubicación: En las peliculas
Mensajes: 740
Temas: 726
Has agradecido: 0
Has sido agradecido 6 veces en 6 mensajes
Poder de Credibilidad: 0
O2312 es como un diamante en brutoO2312 es como un diamante en brutoO2312 es como un diamante en brutoO2312 es como un diamante en bruto
Reputación: 335
Predeterminado Halowen con shrek [DVDRip Animacion Castellano 2010 .Avi US & FJ]





Información del archivo en el servidor
Partes: 2
Servidores: US & FJ
Tamaño: 329 Mb

Sinopsis
Shrek y sus amigos se reúnen la noche de Halloween para contarse historias de terror con
el objetivo de asustar a Shrek, que asegura que no hay nada capaz de asustarle.

Caps





Ficha Tenica

TÍTULO ORIGINAL
Shrek: Scared Shrekless
AÑO 2010
DURACIÓN 22 min. Trailers/Vídeos
PAÍS USA
DIRECTOR Gary Trousdale, Raman Hui
GUIÓN Sean Bishop, Gary Trousdale
(Libro: William Steig)
MÚSICA Halli Cauthery
FOTOGRAFÍA Animation
REPARTO Animation
PRODUCTORA DreamWorks Animation
PREMIOS 2010: Premios Annie: 5
nominaciones, incluyendo mejor
producción animada para TV
GÉNERO Animación. Comedia.
Fantástico. Terror

Datos de ripeo

General

Complete name : files/O2312HALLOWENCONSHREKCASTELLANO.avi
Format : AVI
Format/Info : Audio Video Interleave
File size : 329 MiB
Duration : 25mn 31s
Overall bit rate : 1 800 Kbps
Movie name : Scared.Shrekless.2010.DVDRip.LATiNO.XviD
Director : WwW.IntercambiosVirtuales.ORG
Recorded date : 30-10-2011
Writing application : VirtualDubMod 1.5.10.2 (build 2540/release)
Writing library : VirtualDubMod build 2540/release
Copyright : WwW.IntercambiosVirtuales.ORG

Video

ID : 0
Format : MPEG-4 Visual
Format profile : Advanced Simple@L5
Format settings, BVOP : Yes
Format settings, QPel : No
Format settings, GMC : No warppoints
Format settings, Matrix : Default (MPEG)
Codec ID : XVID
Codec ID/Hint : XviD
Duration : 25mn 31s
Bit rate : 1 599 Kbps
Width : 720 pixels
Height : 384 pixels
Display aspect ratio : 1.875
Frame rate : 23.976 fps
Color space : YUV
Chroma subsampling : 4:2:0
Bit depth : 8 bits
Scan type : Progressive
Bits/(Pixel*Frame) : 0.241
Stream size : 292 MiB (89%)
Writing library : XviD 1.2.1 (UTC 2008-12-04)

Audio

ID : 1
Format : AC-3
Format/Info : Audio Coding 3
Mode extension : CM (complete main)
Codec ID : 2000
Duration : 25mn 31s
Bit rate mode : Constant
Bit rate : 192 Kbps
Channel(s) : 2 channels
Channel positions : Front: L R
Sampling rate : 48.0 KHz
Bit depth : 16 bits
Video delay : 4s 500ms
Stream size : 35.0 MiB (11%)
Alignment : Split accross interleaves
Interleave, duration : 42 ms (1.00 video frame)
Interleave, preload duration : 500 ms

Descarga
US & FJ

Servidor #1

Parte 1
http://www.filejungle.com/f/NPAMcv/O....avi.part1.rar
Parte 2
http://www.filejungle.com/f/5DcrT4/O....avi.part2.rar

Servidor #2

Parte 1
http://www.uploadstation.com/file/aq....avi.part1.rar
Parte 2
http://www.uploadstation.com/file/qD....avi.part2.rar

Nota: Si encuentras un link caído avísame para volverlo a subir




O2312 esta offline  
Tema Cerrado

Etiquetas
2010, animacion, avi, castellano, con, dvdrip, fj, halowen, shrek


Usuarios activos actualmente viendo este tema: 1 (0 miembros y 1 visitantes)
 
Herramientas
Desplegado



El uso horario es GMT -5. La hora actual es: 08:56:54
Powered by vBulletin™ Version 3.8.6
Copyright © 2014 vBulletin Solutions, Inc. All rights reserved.
Traducción por vBHispano
vBulletin Skin by CompletevB
HagalePues.Net 2008 - 2014
SEO by vBSEO ©2011, Crawlability, Inc.