Enredados [DVDRip Animacion Castellano 2010 .Avi US & FJ] - Hagale Pues
Header Hágale Pues
Retroceder   Hagale Pues » Foros de conversación » Basura de Hagalepues
Portal Foro Temas de Hoy Registrarse Buscar




Enredados [DVDRip Animacion Castellano 2010 .Avi US & FJ]



Tema Cerrado
Herramientas
Antiguo 16/12/11, 19:20:00   #1
Baneado
 
Fecha de Ingreso: nov 2011
Ubicación: En las peliculas
Mensajes: 740
Temas: 726
Has agradecido: 0
Has sido agradecido 6 veces en 6 mensajes
Poder de Credibilidad: 0
O2312 es como un diamante en brutoO2312 es como un diamante en brutoO2312 es como un diamante en brutoO2312 es como un diamante en bruto
Reputación: 335
Predeterminado Enredados [DVDRip Animacion Castellano 2010 .Avi US & FJ]





Información del archivo en el servidor
Partes: 6
Servidores: US & FJ
Tamaño: 1.44 Gb

Sinopsis
Flynn Rider, el más buscado -y encantador- bandido del reino, se esconde en una misteriosa
torre y toma como rehén a Rapunzel, una bella y avispada adolescente con una cabellera
dorada de 21 metros de largo, que vive encerrada allí desde hace años.
La singular prisionera sella un pacto con el apuesto ladrón. A partir
de ese momento, la pareja vivirá emocionantes aventuras en
compañía de un caballo superpolicía, un camaleón
sobreprotector y una ruda pandilla de matones.

Caps





Ficha Tenica

TÍTULO ORIGINAL Tangled (Rapunzel)
AÑO 2010
DURACIÓN 104 min.
PAÍS Estados Unidos
DIRECTOR Nathan Greno, Byron Howard
GUIÓN Glen Keane, Josann McGibbon, Adan Wilson, Sara Parriott, Melanie Wilson (Cuento: Hermanos Grimm)
MÚSICA Jeanine Tesori
FOTOGRAFÍA Animation
REPARTO Animation

Datos de ripeo

General

Complete name : files/O2312ENREDADOSCASTELLANO.avi
Format : AVI
Format/Info : Audio Video Interleave
File size : 1.44 GiB
Duration : 1h 40mn
Overall bit rate : 2 051 Kbps
Writing application : VirtualDubMod 1.5.10.2 (build 2540/release)
Writing library : VirtualDubMod build 2540/release

Video

ID : 0
Format : MPEG-4 Visual
Format profile : Advanced Simple@L5
Format settings, BVOP : Yes
Format settings, QPel : No
Format settings, GMC : No warppoints
Format settings, Matrix : Default (MPEG)
Codec ID : XVID
Codec ID/Hint : XviD
Duration : 1h 40mn
Bit rate : 1 513 Kbps
Width : 720 pixels
Height : 400 pixels
Display aspect ratio : 16:9
Frame rate : 23.976 fps
Color space : YUV
Chroma subsampling : 4:2:0
Bit depth : 8 bits
Scan type : Progressive
Bits/(Pixel*Frame) : 0.219
Stream size : 1.06 GiB (74%)
Writing library : XviD 1.2.1 (UTC 2008-12-04)

Audio

ID : 1
Format : AC-3
Format/Info : Audio Coding 3
Mode extension : CM (complete main)
Codec ID : 2000
Duration : 1h 40mn
Bit rate mode : Constant
Bit rate : 448 Kbps
Channel(s) : 6 channels
Channel positions : Front: L C R, Side: L R, LFE
Sampling rate : 48.0 KHz
Bit depth : 16 bits
Stream size : 321 MiB (22%)
Alignment : Split accross interleaves

Descarga
US & FJ

Servidor #1

Parte 1
http://www.filejungle.com/f/EGuBNj/O....avi.part1.rar
Parte 2
http://www.filejungle.com/f/kt9e5u/O....avi.part2.rar
Parte 3
http://www.filejungle.com/f/UsfKBZ/O....avi.part3.rar
Parte 4
http://www.filejungle.com/f/jmKB3G/O....avi.part4.rar
Parte 5
http://www.filejungle.com/f/u2VZeB/O....avi.part5.rar
Parte 6
http://www.filejungle.com/f/ZpkNTc/O....avi.part6.rar

Servidor #2

Parte 1
http://www.uploadstation.com/file/RK....avi.part1.rar
Parte 2
http://www.uploadstation.com/file/HJ....avi.part2.rar
Parte 3
http://www.uploadstation.com/file/dy....avi.part3.rar
Parte 4
http://www.uploadstation.com/file/PU....avi.part4.rar
Parte 5
http://www.uploadstation.com/file/p3....avi.part5.rar
Parte 6
http://www.uploadstation.com/file/96....avi.part6.rar

Nota: Si encuentras un link caído avísame para volverlo a subir




O2312 esta offline  
marca Hoy   #1.5
Torinbo
Usuario Activo

avatar
 
Fecha Ingreso: Jul 2008
Ubicación: En el 2 post
Edad: 18
Mensajes: 1569
Poder de Credibilidad: 550
skypemsn
Respuesta Re: Enredados [DVDRip Animacion Castellano 2010 .Avi US & FJ]

 
__________________


conectado
Tema Cerrado

Etiquetas
2010, animacion, avi, castellano, dvdrip, enredados, fj


Usuarios activos actualmente viendo este tema: 1 (0 miembros y 1 visitantes)
 
Herramientas
Desplegado



El uso horario es GMT -5. La hora actual es: 14:11:28
Powered by vBulletin™ Version 3.8.6
Copyright © 2014 vBulletin Solutions, Inc. All rights reserved.
Traducción por vBHispano
vBulletin Skin by CompletevB
HagalePues.Net 2008 - 2014
SEO by vBSEO ©2011, Crawlability, Inc.