El profesor layton y la diva eterna [DVDRip Animacion Castellano 2009 .Avi US & FJ] - Hagale Pues
Header Hágale Pues
Retroceder   Hagale Pues » Foros de conversación » Basura de Hagalepues
Portal Foro Temas de Hoy Registrarse Buscar




El profesor layton y la diva eterna [DVDRip Animacion Castellano 2009 .Avi US & FJ]



Tema Cerrado
Herramientas
Antiguo 16/12/11, 18:13:25   #1
Baneado
 
Fecha de Ingreso: nov 2011
Ubicación: En las peliculas
Mensajes: 740
Temas: 726
Has agradecido: 0
Has sido agradecido 6 veces en 6 mensajes
Poder de Credibilidad: 0
O2312 es como un diamante en brutoO2312 es como un diamante en brutoO2312 es como un diamante en brutoO2312 es como un diamante en bruto
Reputación: 335
Predeterminado El profesor layton y la diva eterna [DVDRip Animacion Castellano 2009 .Avi US & FJ]





Información del archivo en el servidor
Partes: 5
Servidores: US & FJ
Tamaño: 1.02 Gb

Sinopsis
Adaptación anime de la saga de videojuegos del mismo nombre. El Profesor Layton y Luke reciben
una invitación para asistir a la ópera de Londres enviada por la cantante Jenice Kaitly.
Por lo visto, la mujer se encontró con una antigua amiga que había vuelto a
convertirse en una niña pequeña y que le aseguraba que había encontrado
una forma de conseguir la vida eterna.

Caps





Ficha Tenica

TÍTULO ORIGINAL
(Professor Layton and the Eternal Diva)
AÑO 2009
DURACIÓN 97 min.
PAÍS [Japón]
DIRECTOR Masakazu Kubo
GUIÓN Akiro Hino, Aya Matsui
MÚSICA Tomohito Nishiura
FOTOGRAFÍA Animation
REPARTO Animation
PRODUCTORA Oriental Light and Magic
(OLM, Inc.) / Nintendo
GÉNERO Animación. Intriga. Aventuras

Datos de ripeo

General

Complete name : files/O2312ELPROFESORLAYTONYLADIVAETERNACASTELLANO.avi
Format : AVI
Format/Info : Audio Video Interleave
File size : 1.02 GiB
Duration : 1h 38mn
Overall bit rate : 1 475 Kbps
Writing application : VirtualDubMod 1.5.10.2 (build 2540/release)
Writing library : VirtualDubMod build 2540/release

Video

ID : 0
Format : MPEG-4 Visual
Format profile : Simple@L3
Format settings, BVOP : No
Format settings, QPel : No
Format settings, GMC : No warppoints
Format settings, Matrix : Default (H.263)
Codec ID : XVID
Codec ID/Hint : XviD
Duration : 1h 38mn
Bit rate : 1 241 Kbps
Width : 848 pixels
Height : 480 pixels
Display aspect ratio : 16:9
Frame rate : 23.976 fps
Color space : YUV
Chroma subsampling : 4:2:0
Bit depth : 8 bits
Scan type : Progressive
Bits/(Pixel*Frame) : 0.127
Stream size : 879 MiB (84%)
Writing library : XviD 57

Audio

ID : 1
Format : AC-3
Format/Info : Audio Coding 3
Mode extension : CM (complete main)
Codec ID : 2000
Duration : 1h 38mn
Bit rate mode : Constant
Bit rate : 224 Kbps
Channel(s) : 2 channels
Channel positions : Front: L R
Sampling rate : 48.0 KHz
Bit depth : 16 bits
Video delay : 1s 0ms
Stream size : 159 MiB (15%)
Alignment : Split accross interleaves
Interleave, duration : 42 ms (1.00 video frame)
Interleave, preload duration : 500 ms

Descarga
US & FJ

Servidor #1

Parte 1
http://www.filejungle.com/f/EQu4bG/O....avi.part1.rar
Parte 2
http://www.filejungle.com/f/UPBJXf/O....avi.part2.rar
Parte 3
http://www.filejungle.com/f/ST7XCa/O....avi.part3.rar
Parte 4
http://www.filejungle.com/f/xTHTWM/O....avi.part4.rar
Parte 5
http://www.filejungle.com/f/CtRaV3/O....avi.part5.rar

Servidor #2

Parte 1
http://www.uploadstation.com/file/Xy....avi.part1.rar
Parte 2
http://www.uploadstation.com/file/Wp....avi.part2.rar
Parte 3
http://www.uploadstation.com/file/RE....avi.part3.rar
Parte 4
http://www.uploadstation.com/file/Cn....avi.part4.rar
Parte 5
http://www.uploadstation.com/file/Dv....avi.part5.rar

Nota: Si encuentras un link caído avísame para volverlo a subir




O2312 esta offline  
Tema Cerrado

Etiquetas
2009, animacion, avi, castellano, diva, dvdrip, el, eterna, fj, la, layton, profesor


Usuarios activos actualmente viendo este tema: 1 (0 miembros y 1 visitantes)
 
Herramientas
Desplegado



El uso horario es GMT -5. La hora actual es: 22:04:12
Powered by vBulletin™ Version 3.8.6
Copyright © 2014 vBulletin Solutions, Inc. All rights reserved.
Traducción por vBHispano
vBulletin Skin by CompletevB
HagalePues.Net 2008 - 2014
SEO by vBSEO ©2011, Crawlability, Inc.