El invencible iron man [DVDRip Animacion Castellano 2007 .Avi US & FJ] - Hagale Pues
Header Hágale Pues
Retroceder   Hagale Pues » Foros de conversación » Basura de Hagalepues
Portal Foro Temas de Hoy Registrarse Buscar




El invencible iron man [DVDRip Animacion Castellano 2007 .Avi US & FJ]



Tema Cerrado
Herramientas
Antiguo 16/12/11, 18:06:08   #1
Baneado
 
Fecha de Ingreso: nov 2011
Ubicación: En las peliculas
Mensajes: 740
Temas: 726
Has agradecido: 0
Has sido agradecido 6 veces en 6 mensajes
Poder de Credibilidad: 0
O2312 es como un diamante en brutoO2312 es como un diamante en brutoO2312 es como un diamante en brutoO2312 es como un diamante en bruto
Reputación: 335
Predeterminado El invencible iron man [DVDRip Animacion Castellano 2007 .Avi US & FJ]





Información del archivo en el servidor
Partes: 3
Servidores: US & FJ
Tamaño: 701 Mb

Sinopsis
En una nueva aventura de Iron Man, revela sus orígenes. Tony Stark, inventor y empresario, inventa
un traje de hierro muy sofisticado de Armas para combatir contra 4 guerreros
chinos, que según la profecía china, son los inicios de una
nueva dinastía que se apodera del mundo.

Caps





Ficha Tenica

Dirección: Frank Paur
País:
Año: 2007
Duración: 83 min.
Género: Animacion
Guión: Avi Arad, Greg Johnson
Producción: Ari Arad
Música: Guy Michelmore
Montaje: George Rizkallah

Datos de ripeo

General

Complete name : files/O2312IRONMANELINVENCIBLECASTELLANO.avi
Format : AVI
Format/Info : Audio Video Interleave
File size : 701 MiB
Duration : 1h 19mn
Overall bit rate : 1 229 Kbps
Writing application : VirtualDubMod 1.5.4.1 (build 2178/release)
Writing library : VirtualDubMod build 2178/release

Video

ID : 0
Format : MPEG-4 Visual
Format profile : Advanced Simple@L5
Format settings, BVOP : Yes
Format settings, QPel : No
Format settings, GMC : No warppoints
Format settings, Matrix : Custom
Codec ID : XVID
Codec ID/Hint : XviD
Duration : 1h 19mn
Bit rate : 774 Kbps
Width : 720 pixels
Height : 400 pixels
Display aspect ratio : 16:9
Frame rate : 25.000 fps
Color space : YUV
Chroma subsampling : 4:2:0
Bit depth : 8 bits
Scan type : Progressive
Bits/(Pixel*Frame) : 0.107
Stream size : 441 MiB (63%)
Writing library : XviD 1.2.0.dev47 (UTC 2006-11-01)

Audio

ID : 1
Format : AC-3
Format/Info : Audio Coding 3
Mode extension : CM (complete main)
Codec ID : 2000
Duration : 1h 19mn
Bit rate mode : Constant
Bit rate : 448 Kbps
Channel(s) : 6 channels
Channel positions : Front: L C R, Side: L R, LFE
Sampling rate : 48.0 KHz
Bit depth : 16 bits
Stream size : 255 MiB (36%)
Alignment : Aligned on interleaves
Interleave, duration : 96 ms (2.40 video frames)
Interleave, preload duration : 96 ms
Language : Spanish

Descarga
US & FJ

Servidor #1

Parte 1
http://www.filejungle.com/f/qSPEsg/O....avi.part1.rar
Parte 2
http://www.filejungle.com/f/Dg8KBA/O....avi.part2.rar
Parte 3
http://www.filejungle.com/f/uEZkr3/O....avi.part3.rar

Servidor #2

Parte 1
http://www.uploadstation.com/file/A5....avi.part1.rar
Parte 2
http://www.uploadstation.com/file/Ce....avi.part2.rar
Parte 3
http://www.uploadstation.com/file/Pm....avi.part3.rar

Nota: Si encuentras un link caído avísame para volverlo a subir




O2312 esta offline  
Tema Cerrado

Etiquetas
2007, animacion, avi, castellano, dvdrip, el, fj, invencible, iron, man


Usuarios activos actualmente viendo este tema: 1 (0 miembros y 1 visitantes)
 
Herramientas
Desplegado



El uso horario es GMT -5. La hora actual es: 16:11:32
Powered by vBulletin™ Version 3.8.6
Copyright © 2014 vBulletin Solutions, Inc. All rights reserved.
Traducción por vBHispano
vBulletin Skin by CompletevB
HagalePues.Net 2008 - 2014
SEO by vBSEO ©2011, Crawlability, Inc.