Doda la exploradora [DVDRip Animacion Castellano 2010 .Avi US & FJ] - Hagale Pues
Header Hágale Pues
Retroceder   Hagale Pues » Foros de conversación » Basura de Hagalepues
Portal Foro Temas de Hoy Registrarse Buscar




Doda la exploradora [DVDRip Animacion Castellano 2010 .Avi US & FJ]



Tema Cerrado
Herramientas
Antiguo 16/12/11, 17:55:11   #1
Baneado
 
Fecha de Ingreso: nov 2011
Ubicación: En las peliculas
Mensajes: 740
Temas: 726
Has agradecido: 0
Has sido agradecido 6 veces en 6 mensajes
Poder de Credibilidad: 0
O2312 es como un diamante en brutoO2312 es como un diamante en brutoO2312 es como un diamante en brutoO2312 es como un diamante en bruto
Reputación: 335
Predeterminado Doda la exploradora [DVDRip Animacion Castellano 2010 .Avi US & FJ]





Información del archivo en el servidor
Partes: 3
Servidores: US & FJ
Tamaño: 659 Mb

Sinopsis
Cuando Swiper trata de zampar la Estrella de Navidad en la Fiesta de Nochebuena de Dora,
acaba por ente incluido en la veta de gente traviesa de Santa. Para conseguir volver a la
veta de gente buena, Dora ha de beneficiar a que Swiper viaje al pasado, al hodierno y
al futuro y que asi descubra el Autentico espiritu de la Navidad.
¿Verdad que les beneficiaras?

Caps





Ficha Tenica

Titulo original: Dora the Explorer:
Dora's Christmas Carol Adventure
Director : Henry Madden , George S.
Chialtas , Gary Conrad , Katie McWane

Datos de ripeo

General

Complete name : files/O2312DORALAELORADORACASTELLANO.avi
Format : AVI
Format/Info : Audio Video Interleave
File size : 659 MiB
Duration : 48mn 0s
Overall bit rate : 1 919 Kbps
Writing application : MEncoder version 4.1.5 building on 20101022
Writing library : [= DigiArty videodll! =][= DigiArty videodll! =][= DigiArty videodll! =][= DigiArty videodll! =][= DigiArty videodll! =][= DigiArty videodll! =][= DigiArty videodll! =][= DigiArty videodll! =][= DigiArty videodll! =][= DigiArty videodll! =][= DigiArty videodll! =][= DigiArty videodll! =][= DigiArty videodll! =][= DigiArty videodll! =][= DigiArty videodll! =][= DigiArty videodll! =][= DigiArty videodll! =][= DigiArty videodll! =][= DigiArty videodll! =][= DigiArty videodll! =][= DigiArty videodll! =][= DigiArty videodll! =][= DigiArty videodll! =][= DigiArty videodll! =][= DigiArty videodll! =][= DigiArty videodll! =][= DigiArty videodll! =][= DigiArty videodll! =][= DigiArty videodll! =][= DigiArty videodll! =][= DigiArty videodll! =][= DigiArty videodll! =][= DigiArty videodll! =][= DigiArty videodll! =][= DigiArty videodll! =][= DigiArty videodll! =][= DigiArty videodll! =][= DigiArty videodll! =][= DigiArty videodll! =][= DigiArty videodll! =][= DigiArty videodll! =][= DigiArty videodll! =][= DigiArty videodll! =][= DigiArty videodll! =][= DigiArty videodll! =][= DigiArty videodll! =][= DigiArty videodll! =][= DigiArty videodll! =][= DigiArty videodll! =][= DigiArty videodll! =][= DigiArty videodll! =][= DigiArty videodll! =][= DigiArty videodll! =][= DigiArty videodll! =][= DigiArty videodll! =][= DigiArty videodll! =][= DigiArty videodll! =][= DigiArty videodll! =][= DigiArty videodll! =][= DigiArty videodll! =][= DigiArty videodll! =][= DigiArty videodll! =][= DigiArty videodll! =][= DigiArty videodll! =][= DigiArty videodll! =][= DigiArty videodll! =][= DigiArty videodll! =][= DigiArty videodll! =][= DigiArty videodll! =][= DigiArty videodll! =][= DigiArty videodll! =][= DigiArty videodll! =][= DigiArty videodll! =][= DigiArty videodll! =][= DigiArty videodll! =][= DigiArty videodll! =][= DigiArty videodll! =][= DigiArty videodll! =][= DigiArty videodll! =][= DigiArty videodll! =][= DigiArty videodll! =][= DigiArty videodll! =][= DigiArty videodll! =][= DigiArty videodll! =][= DigiArty videodll! =][= DigiArty videodll! =][= DigiArty videodll! =][= DigiArty videodll! =][= DigiArty videodll! =][= DigiArty videodll! =][= DigiArty videodll! =][= DigiArty videodll! =][= DigiArty videodll! =][= DigiArty videodll! =][= DigiArty videodll! =][= DigiArty videodll! =][= DigiArty videodll! =][= DigiArty videodll! =][= DigiArty videodll! =][= DigiArty videodll! =][= DigiArty videodll! =][= DigiArty videodll! =][= DigiArty videodll! =][= DigiArty videodll! =][= DigiArty videodll! =][= DigiArty videodll! =][= DigiArty videodll! =][= DigiArty videodll! =][= DigiArty videodll! =][= DigiArty videodll! =][= DigiArty videodll! =][= DigiArty videodll! =][= DigiArty videodll! =][= DigiArty videodll! =][= DigiArty videodll! =][= DigiArty videodll! =][= DigiArty videodll! =][= DigiArty videodll! =][= DigiArty videodll! =][= DigiArty videodll! =][= DigiArty videodll! =][= DigiArty videodll! =][= DigiArty videodll! =][= DigiArty videodll! =][= DigiArty videodll! =][= DigiArty videodll! =][= DigiArty videodll! =][= DigiArty videodll! =][= DigiArty videodll! =][= DigiArty videodll! =][= DigiArty videodll! =][= DigiArty videodll! =][= DigiArty videodll! =][= DigiArty videodll! =][= DigiArty videodll! =][= DigiArty videodll! =][= DigiArty videodll! =][= DigiArty videodll! =][= DigiArty videodll! =][= DigiArty videodll! =][= DigiArty videodll! =][= DigiArty videodll! =][= DigiArty videodll! =][= DigiArty videodll! =][= DigiArty videodll! =][= DigiArty videodll! =][= DigiArty videodll! =][= DigiArty videodll! =][= DigiArty videodll! =][= DigiArty videodll! =][= DigiArty videodll! =][= DigiArt

Video

ID : 0
Format : MPEG-4 Visual
Format profile : Advanced Simple@L5
Format settings, BVOP : Yes
Format settings, QPel : No
Format settings, GMC : No warppoints
Format settings, Matrix : Default (MPEG)
Codec ID : XVID
Codec ID/Hint : XviD
Duration : 48mn 0s
Bit rate : 1 722 Kbps
Width : 720 pixels
Height : 540 pixels
Display aspect ratio : 4:3
Frame rate : 25.000 fps
Color space : YUV
Chroma subsampling : 4:2:0
Bit depth : 8 bits
Scan type : Progressive
Bits/(Pixel*Frame) : 0.177
Stream size : 591 MiB (90%)
Writing library : XviD 1.2.1 (UTC 2008-12-04)

Audio

ID : 1
Format : AC-3
Format/Info : Audio Coding 3
Mode extension : CM (complete main)
Codec ID : 2000
Duration : 48mn 0s
Bit rate mode : Constant
Bit rate : 192 Kbps
Channel(s) : 2 channels
Channel positions : Front: L R
Sampling rate : 48.0 KHz
Bit depth : 16 bits
Video delay : 40ms
Stream size : 65.9 MiB (10%)
Alignment : Split accross interleaves
Interleave, duration : 500 ms (12.50 video frames)
Interleave, preload duration : 500 ms

Descarga
US & FJ

Servidor #1

Parte 1
http://www.filejungle.com/f/uq7yYU/O....avi.part1.rar
Parte 2
http://www.filejungle.com/f/t5thjE/O....avi.part2.rar
Parte 3
http://www.filejungle.com/f/3tukeP/O....avi.part3.rar

Servidor #2

Parte 1
http://www.uploadstation.com/file/9r....avi.part1.rar
Parte 2
http://www.uploadstation.com/file/UB....avi.part2.rar
Parte 3
http://www.uploadstation.com/file/pw....avi.part3.rar

Nota: Si encuentras un link caído avísame para volverlo a subir




O2312 esta offline  
Tema Cerrado

Etiquetas
2010, animacion, avi, castellano, doda, dvdrip, exploradora, fj, la


Usuarios activos actualmente viendo este tema: 1 (0 miembros y 1 visitantes)
 
Herramientas
Desplegado



El uso horario es GMT -5. La hora actual es: 03:29:39
Powered by vBulletin™ Version 3.8.6
Copyright © 2014 vBulletin Solutions, Inc. All rights reserved.
Traducción por vBHispano
vBulletin Skin by CompletevB
HagalePues.Net 2008 - 2014
SEO by vBSEO ©2011, Crawlability, Inc.