Barbie escuela de princesas [DVDRip Animacion Castellano 2011 .Avi US & FJ] - Hagale Pues
Header Hágale Pues
Retroceder   Hagale Pues » Foros de conversación » Basura de Hagalepues
Portal Foro Temas de Hoy Registrarse Buscar




Barbie escuela de princesas [DVDRip Animacion Castellano 2011 .Avi US & FJ]



Tema Cerrado
Herramientas
Antiguo 16/12/11, 17:48:26   #1
Baneado
 
Fecha de Ingreso: nov 2011
Ubicación: En las peliculas
Mensajes: 740
Temas: 726
Has agradecido: 0
Has sido agradecido 6 veces en 6 mensajes
Poder de Credibilidad: 0
O2312 es como un diamante en brutoO2312 es como un diamante en brutoO2312 es como un diamante en brutoO2312 es como un diamante en bruto
Reputación: 335
Predeterminado Barbie escuela de princesas [DVDRip Animacion Castellano 2011 .Avi US & FJ]





Información del archivo en el servidor
Partes: 5
Servidores: US & FJ
Tamaño: 1.22 Gb

Sinopsis
Barbie en el papel de Blair, una chica normal que es invitada a formar parte de la escuela
mas prestigiada LA ESCUELA PARA PRINCESAS. Blair tendra que aprender a ser la mejor
princesa para poder graduarse con la ayuda de sus amigas Delancy y Hadley y de
mucha magia, el ser bonita no sera suficiente para Blair pues aprendera
que toda princesa debe tener actitud, valor y mucha confianza, y que
la verdadera princesa la llevamos en el corazon.

Caps





Ficha Tenica

Título original:
Barbie Princess Charm School.
Año:2011.
Idioma:Español.
Pais:USA.
Duración:80 min.

Datos de ripeo

General

Complete name : files/O2312BARBIEESCUELADEPRINCESASCASTELLANO.avi
Format : AVI
Format/Info : Audio Video Interleave
File size : 1.22 GiB
Duration : 1h 19mn
Overall bit rate : 2 184 Kbps
Writing application : VirtualDubMod 1.5.10.2 (build 2542/release)
Writing library : VirtualDubMod build 2542/release

Video

ID : 0
Format : MPEG-4 Visual
Format profile : Advanced Simple@L5
Format settings, BVOP : Yes
Format settings, QPel : No
Format settings, GMC : No warppoints
Format settings, Matrix : Default (H.263)
Muxing mode : Packed bitstream
Codec ID : XVID
Codec ID/Hint : XviD
Duration : 1h 19mn
Bit rate : 1 791 Kbps
Width : 720 pixels
Height : 404 pixels
Display aspect ratio : 16:9
Frame rate : 25.000 fps
Color space : YUV
Chroma subsampling : 4:2:0
Bit depth : 8 bits
Scan type : Progressive
Bits/(Pixel*Frame) : 0.246
Stream size : 1 021 MiB (82%)
Writing library : XviD 64

Audio

ID : 1
Format : AC-3
Format/Info : Audio Coding 3
Mode extension : CM (complete main)
Codec ID : 2000
Duration : 1h 19mn
Bit rate mode : Constant
Bit rate : 384 Kbps
Channel(s) : 6 channels
Channel positions : Front: L C R, Side: L R, LFE
Sampling rate : 48.0 KHz
Bit depth : 16 bits
Stream size : 219 MiB (18%)
Alignment : Split accross interleaves
Interleave, duration : 40 ms (1.00 video frame)
Interleave, preload duration : 500 ms

Descarga
US & FJ

Servidor #1

Parte 1
http://www.filejungle.com/f/CrauqB/O....avi.part1.rar
Parte 2
http://www.filejungle.com/f/fjTZNU/O....avi.part2.rar
Parte 3
http://www.filejungle.com/f/fVUDwG/O....avi.part3.rar
Parte 4
http://www.filejungle.com/f/vEwSaK/O....avi.part4.rar
Parte 5
http://www.filejungle.com/f/U2vaf8/O....avi.part5.rar

Servidor #2

Parte 1
http://www.uploadstation.com/file/V7....avi.part1.rar
Parte 2
http://www.uploadstation.com/file/nm....avi.part2.rar
Parte 3
http://www.uploadstation.com/file/QV....avi.part3.rar
Parte 4
http://www.uploadstation.com/file/Jq....avi.part4.rar
Parte 5
http://www.uploadstation.com/file/mz....avi.part5.rar

Nota: Si encuentras un link caído avísame para volverlo a subir




O2312 esta offline  
Tema Cerrado

Etiquetas
2011, animacion, avi, barbie, castellano, de, dvdrip, escuela, fj, princesas


Usuarios activos actualmente viendo este tema: 1 (0 miembros y 1 visitantes)
 
Herramientas
Desplegado



El uso horario es GMT -5. La hora actual es: 06:44:42
Powered by vBulletin™ Version 3.8.6
Copyright © 2014 vBulletin Solutions, Inc. All rights reserved.
Traducción por vBHispano
vBulletin Skin by CompletevB
HagalePues.Net 2008 - 2014
SEO by vBSEO ©2011, Crawlability, Inc.