Baby looney tunes fiesta de disfraces [DVDRip Animacion Castellano 2008 .Avi US & FJ] - Hagale Pues
Header Hágale Pues
Retroceder   Hagale Pues » Foros de conversación » Basura de Hagalepues
Portal Foro Temas de Hoy Registrarse Buscar




Baby looney tunes fiesta de disfraces [DVDRip Animacion Castellano 2008 .Avi US & FJ]



Tema Cerrado
Herramientas
Antiguo 16/12/11, 17:42:17   #1
Baneado
 
Fecha de Ingreso: nov 2011
Ubicación: En las peliculas
Mensajes: 740
Temas: 726
Has agradecido: 0
Has sido agradecido 6 veces en 6 mensajes
Poder de Credibilidad: 0
O2312 es como un diamante en brutoO2312 es como un diamante en brutoO2312 es como un diamante en brutoO2312 es como un diamante en bruto
Reputación: 335
Predeterminado Baby looney tunes fiesta de disfraces [DVDRip Animacion Castellano 2008 .Avi US & FJ]





Información del archivo en el servidor
Partes: 3
Servidores: US & FJ
Tamaño: 670 Mb

Sinopsis
Al ver un autobús escolar amarillo, grande y brillante, la pandilla empieza a soñar con el Sueño
escolar y todos se preparan jugando a llevar cosas y hablar de ellas, practicando
simulacros de incendio y montando en su propio autobús escolar imaginario.

Caps





Ficha Tenica

Baby Looney Tunes
Fiesta de disfraces
Año 2008
Duración 50 Minutos
Género Animacion
infantil

Datos de ripeo

General
Complete name : files/O2312BABYLONEYTUNESCASTELLANO.avi
Format : AVI
Format/Info : Audio Video Interleave
File size : 670 MiB
Duration : 42mn 44s
Overall bit rate : 2 190 Kbps
Movie name : FIESTA_DE_DISFRACES.Title1.DVDRip
Writing application : Lavf52.78.4
Original source form/Name : FIESTA_DE_DISFRACES

Video

ID : 0
Format : MPEG-4 Visual
Format profile : Advanced Simple@L5
Format settings, BVOP : Yes
Format settings, QPel : No
Format settings, GMC : No warppoints
Format settings, Matrix : Default (H.263)
Muxing mode : Packed bitstream
Codec ID : DX50
Codec ID/Hint : DivX 5
Duration : 42mn 44s
Bit rate : 1 987 Kbps
Width : 720 pixels
Height : 552 pixels
Display aspect ratio : 4:3
Frame rate : 25.000 fps
Color space : YUV
Chroma subsampling : 4:2:0
Bit depth : 8 bits
Scan type : Progressive
Bits/(Pixel*Frame) : 0.200
Stream size : 608 MiB (91%)
Writing library : XviD 1.2.1 (UTC 2008-12-04)

Audio

ID : 1
Format : AC-3
Format/Info : Audio Coding 3
Mode extension : CM (complete main)
Codec ID : 2000
Duration : 42mn 44s
Bit rate mode : Constant
Bit rate : 192 Kbps
Channel(s) : 2 channels
Channel positions : Front: L R
Sampling rate : 48.0 KHz
Bit depth : 16 bits
Stream size : 58.7 MiB (9%)
Alignment : Aligned on interleaves
Interleave, duration : 32 ms (0.80 video frame)
Interleave, preload duration : 32 ms

Descarga
US & FJ

Servidor #1

Parte 1
http://www.filejungle.com/f/Wk4Gbp/O....avi.part1.rar
Parte 2
http://www.filejungle.com/f/Hh8ZBj/O....avi.part2.rar
Parte 3
http://www.filejungle.com/f/cxEjAs/O....avi.part3.rar

Servidor #2

Parte 1
http://www.uploadstation.com/file/2b....avi.part1.rar
Parte 2
http://www.uploadstation.com/file/QY....avi.part2.rar
Parte 3
http://www.uploadstation.com/file/AC....avi.part3.rar

Nota: Si encuentras un link caído avísame para volverlo a subir




O2312 esta offline  
Tema Cerrado

Etiquetas
2008, animacion, avi, baby, castellano, de, disfraces, dvdrip, fiesta, fj, looney, tunes


Usuarios activos actualmente viendo este tema: 1 (0 miembros y 1 visitantes)
 
Herramientas
Desplegado



El uso horario es GMT -5. La hora actual es: 17:19:51
Powered by vBulletin™ Version 3.8.6
Copyright © 2014 vBulletin Solutions, Inc. All rights reserved.
Traducción por vBHispano
vBulletin Skin by CompletevB
HagalePues.Net 2008 - 2014
SEO by vBSEO ©2011, Crawlability, Inc.