El come huesos [DVDRip Terror Castellano 2007 .Avi US & FJ] - Hagale Pues
Header Hágale Pues
Retroceder   Hagale Pues » Foros de conversación » Basura de Hagalepues
Portal Foro Temas de Hoy Registrarse Buscar




El come huesos [DVDRip Terror Castellano 2007 .Avi US & FJ]



Tema Cerrado
Herramientas
Antiguo 09/12/11, 15:18:05   #1
Baneado
 
Fecha de Ingreso: nov 2011
Ubicación: En las peliculas
Mensajes: 740
Temas: 726
Has agradecido: 0
Has sido agradecido 6 veces en 6 mensajes
Poder de Credibilidad: 0
O2312 es como un diamante en brutoO2312 es como un diamante en brutoO2312 es como un diamante en brutoO2312 es como un diamante en bruto
Reputación: 335
Predeterminado El come huesos [DVDRip Terror Castellano 2007 .Avi US & FJ]





Información del archivo en el servidor
Partes: 2
Servidores: US & FJ
Tamaño: 683 Mb

Sinopsis
Cuenta la leyenda que hace siglos existió una criatura que se
alimentaba de los huesos de sus inocentes víctimas y a la que los
antiguos nativos lograron dar muerte.

Caps





Ficha Tenica

TITULO ORIGINAL: Bone Eater
GENERO: Terror
PAIS: Estados Unidos
DURACION: 90 Minutos
AÑO: 2007
DIRECTOR: Jim Wynorski
INTERPRETES: Bruce Boxleitner
Gil Gerard, Paul Rae y Robert
Clotworthy
PRODUCTOR: Lisa M. Hansen
MUSICA: Chuck Cirino
Idioma: Español
Calidad: Dvdrip
Genero: Terror
Tamaño: 683Mb
Formato:Avi

Datos de ripeo

General
Complete name : files/O2312COMEHUESOSCASTELLANO.avi
Format : AVI
Format/Info : Audio Video Interleave
File size : 683 MiB
Duration : 1h 22mn
Overall bit rate : 1 161 Kbps
Writing application : VirtualDubMod 1.4.13
Writing library : VirtualDub build 14328/release

Video
ID : 0
Format : MPEG-4 Visual
Format profile : Advanced Simple@L5
Format settings, BVOP : Yes
Format settings, QPel : No
Format settings, GMC : No warppoints
Format settings, Matrix : Custom
Muxing mode : Packed bitstream
Codec ID : XVID
Codec ID/Hint : XviD
Duration : 1h 22mn
Bit rate : 1 023 Kbps
Width : 640 pixels
Height : 352 pixels
Display aspect ratio : 16:9
Frame rate : 25.000 fps
Color space : YUV
Chroma subsampling : 4:2:0
Bit depth : 8 bits
Scan type : Progressive
Bits/(Pixel*Frame) : 0.182
Stream size : 602 MiB (88%)
Writing library : XviD 1.1.2 (UTC 2006-11-01)

Audio
ID : 1
Format : MPEG Audio
Format version : Version 1
Format profile : Layer 3
Codec ID : 55
Codec ID/Hint : MP3
Duration : 1h 22mn
Bit rate mode : Constant
Bit rate : 128 Kbps
Channel(s) : 2 channels
Sampling rate : 44.1 KHz
Video delay : 308ms
Stream size : 75.3 MiB (11%)
Alignment : Split accross interleaves
Interleave, duration : 40 ms (1.00 video frame)
Interleave, preload duration : 500 ms

Descarga
US & FJ

Servidor #1

Parte 1
http://www.filejungle.com/f/HBN8NP/O....avi.part1.rar
Parte 2
http://www.filejungle.com/f/jM4v73/O....avi.part2.rar

Servidor #2

Parte 1
http://www.uploadstation.com/file/z8....avi.part1.rar
Parte 2
http://www.uploadstation.com/file/Yc....avi.part2.rar
Ver Online
http://www.videozer.com/video/DvkSqcV1

Nota: Si encuentras un link caído avísame para volverlo a subir




O2312 esta offline  
Antiguo 10/02/12, 15:47:33   #2
Usuario Nuevo
 
Fecha de Ingreso: feb 2012
Ubicación: Venezuela
Edad: 33
Mensajes: 12
Has agradecido: 0
Has sido agradecido 2 veces en 2 mensajes
Poder de Credibilidad: 0
convofoto llegará a ser famoso muy prontoconvofoto llegará a ser famoso muy pronto
Reputación: 140
Predeterminado Respuesta: El come huesos [DVDRip Terror Castellano 2007 .Avi US & FJ]

Esa la dieron por Sci-Fi???



convofoto esta offline  
Antiguo 20/03/12, 01:20:24   #3
Usuario Nuevo
 
Fecha de Ingreso: nov 2011
Ubicación: málaga
Edad: 42
Mensajes: 38
Temas: 1
Has agradecido: 61
Has sido agradecido 4 veces en 3 mensajes
Poder de Credibilidad: 17
rasca69tripa tiene un espectacular aura a su alrededorrasca69tripa tiene un espectacular aura a su alrededorrasca69tripa tiene un espectacular aura a su alrededor
Reputación: 200
Predeterminado Re: El come huesos [DVDRip Terror Castellano 2007 .Avi US & FJ]

No se puede descargar sale fuera de linea¿lo podrás arreglar?.Gracias.



rasca69tripa esta offline  
Tema Cerrado

Etiquetas
2007, avi, castellano, dvdrip, el, fj, huesos, terror


Usuarios activos actualmente viendo este tema: 1 (0 miembros y 1 visitantes)
 
Herramientas
Desplegado



El uso horario es GMT -5. La hora actual es: 23:47:53
Powered by vBulletin™ Version 3.8.6
Copyright © 2014 vBulletin Solutions, Inc. All rights reserved.
Traducción por vBHispano
vBulletin Skin by CompletevB
HagalePues.Net 2008 - 2014
SEO by vBSEO ©2011, Crawlability, Inc.