Un método peligroso (2011)(TS scr HQ)(castellano mic)(Drama) - Hagale Pues
Header Hágale Pues
Retroceder   Hagale Pues » Foros de conversación » Basura de Hagalepues
Portal Foro Temas de Hoy Registrarse Buscar




Un método peligroso (2011)(TS scr HQ)(castellano mic)(Drama)



Respuesta
Herramientas
Antiguo 28/11/11, 12:01:25   #1
Baneado
 
Fecha de Ingreso: mar 2011
Ubicación: españa
Edad: 29
Mensajes: 3.550
Temas: 3539
Has agradecido: 0
Has sido agradecido 39 veces en 37 mensajes
Poder de Credibilidad: 0
evilsega tiene motivos para estar orgullosoevilsega tiene motivos para estar orgullosoevilsega tiene motivos para estar orgullosoevilsega tiene motivos para estar orgullosoevilsega tiene motivos para estar orgullosoevilsega tiene motivos para estar orgullosoevilsega tiene motivos para estar orgullosoevilsega tiene motivos para estar orgullosoevilsega tiene motivos para estar orgullosoevilsega tiene motivos para estar orgulloso
Reputación: 1360
Predeterminado Un método peligroso (2011)(TS scr HQ)(castellano mic)(Drama)












Título: Un método peligroso
Título original: A Dangerous Method
País: Cánada, Reino Unido, Alemania
Estreno en USA: 23/11/2011
Estreno en España: 25/11/2011
Productora: Recorded Picture Company, Lago film, Prospero Pictures, Millbrook Pictures
Director: David Cronenberg
Guión: David Cronenberg
Reparto: Keira Knightley, Viggo Mortensen, Michael Fassbender, Vincent Cassel, Sarah Gadon, Katharina Palm, Christian Serritiello, Andrea Magro, Bjorn Geske, Franziska Arndt, Wladimir Matuchin, Clemens Giebel
Calificación: No recomendada para menores de 12 años







Transcurre en los albores de la I Guerra Mundial. Es una poderosa historia de descubrimiento sexual e intelectual basada en acontecimientos reales a partir de la turbulenta relación entre el joven psiquiatra Carl Jung (Michael Fassbender), su mentor Sigmund Freud (Viggo Mortensen) y Sabina Spielrein (Keira Knightley). A este trío se añade Otto Gross (Vincent Cassel), un paciente libertino decidido a traspasar todos los límites. Esta exploración de la sensualidad, de la ambición y del engaño llega a su momento cumbre cuando Jung, Freud y Sabina se reúnen antes de separarse definitivamente y cambiar la dirección del pensamiento moderno.







[spoiler]
Código:

General
Complete name                            : D:\metodoevilsega.avi
Format                                   : AVI
Format/Info                              : Audio Video Interleave
File size                                : 1.15 GiB
Duration                                 : 1h 33mn
Overall bit rate                         : 1 764 Kbps
Writing application                      : VirtualDubMod 1.5.10.2 (build 2540/release)
Writing library                          : VirtualDubMod build 2540/release

Video
ID                                       : 0
Format                                   : MPEG-4 Visual
Format profile                           : Advanced Simple@L5
Format settings, BVOP                    : 2
Format settings, QPel                    : No
Format settings, GMC                     : No warppoints
Format settings, Matrix                  : Default (H.263)
Codec ID                                 : XVID
Codec ID/Hint                            : XviD
Duration                                 : 1h 33mn
Bit rate                                 : 1 498 Kbps
Width                                    : 704 pixels
Height                                   : 368 pixels
Display aspect ratio                     : 1.913
Frame rate                               : 25.000 fps
Color space                              : YUV
Chroma subsampling                       : 4:2:0
Bit depth                                : 8 bits
Scan type                                : Progressive
Compression mode                         : Lossy
Bits/(Pixel*Frame)                       : 0.231
Stream size                              : 1 000 MiB (85%)
Writing library                          : XviD 63

Audio
ID                                       : 1
Format                                   : MPEG Audio
Format version                           : Version 1
Format profile                           : Layer 3
Codec ID                                 : 55
Codec ID/Hint                            : MP3
Duration                                 : 1h 33mn
Bit rate mode                            : Constant
Bit rate                                 : 256 Kbps
Channel(s)                               : 2 channels
Sampling rate                            : 44.1 KHz
Compression mode                         : Lossy
Delay relative to video                  : 19ms
Stream size                              : 171 MiB (15%)
Alignment                                : Split accross interleaves
Interleave, duration                     : 40 ms (1.00 video frame)
Interleave, preload duration             : 500 ms
[/spoiler]











http://www.filejungle.com/f/gJHfvu
http://www.filejungle.com/f/cvGQJF
http://www.filejungle.com/f/dwDUmh








http://ul.to/svbv1hwr/metodoevilsega.part1.rar
http://ul.to/l2dgy6pk/metodoevilsega.part2.rar
http://ul.to/xwk6m5dq/metodoevilsega.part3.rar











evilsega esta offline   Responder Con Cita
Antiguo 28/11/11, 14:59:47   #2
Baneado
 
Fecha de Ingreso: nov 2011
Ubicación: argentina
Edad: 27
Mensajes: 22
Temas: 7
Has agradecido: 0
Has sido agradecido 0 veces en 0 mensajes
Poder de Credibilidad: 0
panchi2 llegará a ser famoso muy prontopanchi2 llegará a ser famoso muy pronto
Reputación: 100
Predeterminado Respuesta: Un método peligroso (2011)(TS scr HQ)(castellano mic)(Drama)

ni enterado de esta plie.... a ve rque onda



panchi2 esta offline   Responder Con Cita
Respuesta

Etiquetas
2011ts, hqcastellano, método, micdrama, peligroso, scr


Usuarios activos actualmente viendo este tema: 1 (0 miembros y 1 visitantes)
 
Herramientas
Desplegado



El uso horario es GMT -5. La hora actual es: 17:46:11
Powered by vBulletin™ Version 3.8.6
Copyright © 2014 vBulletin Solutions, Inc. All rights reserved.
Traducción por vBHispano
vBulletin Skin by CompletevB
HagalePues.Net 2008 - 2014
SEO by vBSEO ©2011, Crawlability, Inc.