Cowboys & aliens [DVDscreener][Castellano][2011][Ciencia ficcion][1Link] - Hagale Pues
Header Hágale Pues
Retroceder   Hagale Pues » Foros de conversación » Basura de Hagalepues
Portal Foro Temas de Hoy Registrarse Buscar




Cowboys & aliens [DVDscreener][Castellano][2011][Ciencia ficcion][1Link]



Respuesta
Herramientas
Antiguo 19/11/11, 00:23:07   #1
Baneado
 
Fecha de Ingreso: mar 2011
Ubicación: españa
Edad: 29
Mensajes: 3.550
Temas: 3539
Has agradecido: 0
Has sido agradecido 39 veces en 37 mensajes
Poder de Credibilidad: 0
evilsega tiene motivos para estar orgullosoevilsega tiene motivos para estar orgullosoevilsega tiene motivos para estar orgullosoevilsega tiene motivos para estar orgullosoevilsega tiene motivos para estar orgullosoevilsega tiene motivos para estar orgullosoevilsega tiene motivos para estar orgullosoevilsega tiene motivos para estar orgullosoevilsega tiene motivos para estar orgullosoevilsega tiene motivos para estar orgulloso
Reputación: 1360
Predeterminado Cowboys & aliens [DVDscreener][Castellano][2011][Ciencia ficcion][1Link]




En 1873, en el viejo Oeste, los colonos y los indios se enfrentan en una batalla salvaje por el control de las tierras. Pero cuando la Tierra se ve amenazada por seres de otro planeta, ambos bandos deberán colaborar para salvar a la humanidad.

[ Uploader: Evilsega ]







TÍTULO ORIGINAL Cowboys & Aliens (Cowboys and Aliens)
AÑO
Ver trailer externo
2011
DURACIÓN
Trailers/Vídeos
118 min.
PAÍS
Sección visual
[Estados Unidos]
DIRECTOR Jon Favreau
GUIÓN Alex Kurtzman, Roberto Orci, Damon Lindelof, Mark Fergus, Hawk Ostby (Cómic: Fred Van Lente, Andrew Foley)
MÚSICA Harry Gregson-Williams
FOTOGRAFÍA Matthew Libatique
REPARTO Daniel Craig, Olivia Wilde, Harrison Ford, Noah Ringer, Sam Rockwell, Paul Dano, Abigail Spencer, Keith Carradine, Ana de la Reguera, Clancy Brown, Walton Goggins
PRODUCTORA DreamWorks SKG / Imagine Entertainment / Kurtzman/Orci / Platinum Studios / Universal Pictures
WEB OFICIAL http://www.cowboysandaliensmovie.com
GÉNERO Ciencia ficción. Western | Extraterrestres. Cómic





En 1873, en el viejo Oeste, los colonos y los indios se enfrentan en una batalla salvaje por el control de las tierras. Pero cuando la Tierra se ve amenazada por seres de otro planeta, ambos bandos deberán colaborar para salvar a la humanidad.






[spoiler]
Código:
General
Complete name                            : D:\charritos Evisega.avi
Format                                   : AVI
Format/Info                              : Audio Video Interleave
File size                                : 1.10 GiB
Duration                                 : 1h 58mn
Overall bit rate                         : 1 326 Kbps
Writing application                      : VirtualDubMod 1.5.10.2 (build 2540/release)
Writing library                          : VirtualDubMod build 2540/release

Video
ID                                       : 0
Format                                   : MPEG-4 Visual
Format profile                           : Advanced Simple@L5
Format settings, BVOP                    : 2
Format settings, QPel                    : No
Format settings, GMC                     : No warppoints
Format settings, Matrix                  : Default (MPEG)
Codec ID                                 : XVID
Codec ID/Hint                            : XviD
Duration                                 : 1h 58mn
Bit rate                                 : 1 189 Kbps
Width                                    : 640 pixels
Height                                   : 272 pixels
Display aspect ratio                     : 2.35:1
Frame rate                               : 23.976 fps
Color space                              : YUV
Chroma subsampling                       : 4:2:0
Bit depth                                : 8 bits
Scan type                                : Progressive
Compression mode                         : Lossy
Bits/(Pixel*Frame)                       : 0.285
Stream size                              : 1 008 MiB (90%)
Writing library                          : XviD 1.2.1 (UTC 2008-12-04)

Audio
ID                                       : 1
Format                                   : MPEG Audio
Codec ID                                 : 55
Codec ID/Hint                            : MP3
Duration                                 : 1h 58mn
Bit rate                                 : 128 Kbps
Channel(s)                               : 2 channels
Sampling rate                            : 44.1 KHz
Compression mode                         : Lossy
Stream size                              : 108 MiB (10%)
Alignment                                : Split accross interleaves
Interleave, duration                     : 42 ms (1.00 video frame)
Interleave, preload duration             : 500 ms
[/spoiler]










http://www.filejungle.com/f/rZevU6
http://www.filejungle.com/f/cXx3Py
http://www.filejungle.com/f/8CjDSh







http://ul.to/03st8rt7/charritos Evisega.part1.rar
http://ul.to/9eo2dn31/charritos Evisega.part2.rar
http://ul.to/s358xkcm/charritos Evisega.part3.rar


En un Solo Link:




No subio










evilsega esta offline   Responder Con Cita
Respuesta

Etiquetas
aliens, cowboys, dvdscreenercastellano2011ciencia, ficción1link


Usuarios activos actualmente viendo este tema: 1 (0 miembros y 1 visitantes)
 
Herramientas
Desplegado



El uso horario es GMT -5. La hora actual es: 15:18:28
Powered by vBulletin™ Version 3.8.6
Copyright © 2014 vBulletin Solutions, Inc. All rights reserved.
Traducción por vBHispano
vBulletin Skin by CompletevB
HagalePues.Net 2008 - 2014
SEO by vBSEO ©2011, Crawlability, Inc.