Chicago [DVDRip musical Castellano & Ingles 2002 .Avi FJ] - Hagale Pues
Header Hágale Pues
Retroceder   Hagale Pues » Foros de conversación » Basura de Hagalepues
Portal Foro Temas de Hoy Registrarse Buscar




Chicago [DVDRip musical Castellano & Ingles 2002 .Avi FJ]



Tema Cerrado
Herramientas
Antiguo 22/10/11, 10:11:54   #1
Baneado
 
Fecha de Ingreso: ago 2010
Ubicación: En tus videos
Edad: 25
Mensajes: 1.220
Temas: 1210
Has agradecido: 1
Has sido agradecido 20 veces en 18 mensajes
Poder de Credibilidad: 0
orlando_2312 tiene motivos para estar orgullosoorlando_2312 tiene motivos para estar orgullosoorlando_2312 tiene motivos para estar orgullosoorlando_2312 tiene motivos para estar orgullosoorlando_2312 tiene motivos para estar orgullosoorlando_2312 tiene motivos para estar orgullosoorlando_2312 tiene motivos para estar orgullosoorlando_2312 tiene motivos para estar orgulloso
Reputación: 1075
Predeterminado Chicago [DVDRip musical Castellano & Ingles 2002 .Avi FJ]





Información del archivo en el servidor
Partes: 2
Servidores: FJ
Tamaño: 1.36 GB

Sinopsis
La promesa de la Ciudad del viento de ofrecer aventuras y oportunidades deslumbra
a Roxie Hart (Renée Zellweger), una actriz aparentemente inocente que sueña con
que el baile y la canción le permitan abandonar su humilde vida. El mayor deseo
de Roxie es seguir los dorados pasos de la artista de vodevil Velma Kelly
(Catherine Zeta-Jones). Roxie consigue su sueño cuando algunos actos
equivocados acaban con la artista y la debutante en la cárcel,
ambas acusadas de sendos asesinatos.

Caps





Ficha Tenica

Título: Chicago
Dirección: Rob Marshall.
Género: musical
País: USA.
Año: 2002.
Duración: 113 min.
Guión: Bill Condon; basado en la obra de
Maurine Dallas Watkins y en el
musical de Fred Ebb y Bob Fosse.
Producción: Marty Richards y Harvey Weinstein.
Música: Danny Elfman.
Fotografía: Dion Beebe.
Montaje: Martin Walsh.
Diseño de producción: John Myhre.
Dirección artística: Andrew M. Stern.
Vestuario: Colleen Atwood.
Interpretación: Catherine Zeta-Jones (Velma Kelly),
Renée Zellweger (Roxie Hart), Richard Gere (Billy Flynn),
John C. Reilly (Amos Hart), Queen Latifah (Matron 'Mama'
Morton), Christine Baranski (Mary Sunshine), Dominic West
(Fred Casely), Lucy Liu (Kitty), Deirdre Goodwin (June),
Denise Faye (Annie)

Datos de ripeo

General
Complete name : files/O2312CHICAGOCASTELLANOINGLES.avi
Format : AVI
Format/Info : Audio Video Interleave
File size : 1.36 GiB
Duration : 1h 48mn
Overall bit rate : 1 791 Kbps
Writing application : VirtualDubMod 1.5.10.1 (build 2439/release)
Writing library : VirtualDubMod build 2439/release

Video
ID : 0
Format : MPEG-4 Visual
Format profile : Advanced Simple@L5
Format settings, BVOP : Yes
Format settings, QPel : No
Format settings, GMC : No warppoints
Format settings, Matrix : Default (H.263)
Codec ID : XVID
Codec ID/Hint : XviD
Duration : 1h 48mn
Bit rate : 1 494 Kbps
Width : 608 pixels
Height : 320 pixels
Display aspect ratio : 1.900
Frame rate : 25.000 fps
Color space : YUV
Chroma subsampling : 4:2:0
Bit depth : 8 bits
Scan type : Progressive
Bits/(Pixel*Frame) : 0.307
Stream size : 1.14 GiB (83%)
Writing library : XviD 0039 build=2005.09.16 (UTC 2005-09-16)

Audio #1
ID : 1
Format : MPEG Audio
Format version : Version 1
Format profile : Layer 3
Codec ID : 55
Codec ID/Hint : MP3
Duration : 1h 48mn
Bit rate mode : Constant
Bit rate : 160 Kbps
Channel(s) : 2 channels
Sampling rate : 48.0 KHz
Stream size : 124 MiB (9%)
Alignment : Aligned on interleaves
Interleave, duration : 96 ms (2.40 video frames)
Interleave, preload duration : 96 ms

Audio #2
ID : 2
Format : MPEG Audio
Format version : Version 1
Format profile : Layer 3
Codec ID : 55
Codec ID/Hint : MP3
Duration : 1h 48mn
Bit rate mode : Constant
Bit rate : 128 Kbps
Channel(s) : 2 channels
Sampling rate : 48.0 KHz
Stream size : 99.6 MiB (7%)
Alignment : Aligned on interleaves
Interleave, duration : 96 ms (2.40 video frames)
Interleave, preload duration : 96 ms

Descarga
FJ

Servidor #1

Parte 1
http://www.filejungle.com/f/veAhww/O...GLES.part1.rar
Parte 2
http://www.filejungle.com/f/BFnWCE/O...GLES.part2.rar

Nota: Si encuentras un link caído avísame para volverlo a subir




orlando_2312 esta offline  
Usuarios que han agradecido este mensaje de orlando_2312
Feldespato (11/11/11)
Antiguo 11/11/11, 07:41:53   #2
Usuario Nuevo
 
Fecha de Ingreso: nov 2011
Ubicación: Cali
Edad: 28
Mensajes: 3
Has agradecido: 2
Has sido agradecido 0 veces en 0 mensajes
Poder de Credibilidad: 0
Feldespato llegará a ser famoso muy prontoFeldespato llegará a ser famoso muy pronto
Reputación: 100
Predeterminado Respuesta: Chicago [DVDRip musical Castellano & Ingles 2002 .Avi FJ]

Muy buena.



Feldespato esta offline  
Antiguo 25/03/12, 00:41:08   #3
Moderador:
Zona Audiovisual
 
Avatar de jheialcazador
 
Fecha de Ingreso: mar 2012
Ubicación: BOGOTA
Edad: 23
Mensajes: 871
Temas: 242
Has agradecido: 1.575
Has sido agradecido 1.552 veces en 361 mensajes
Poder de Credibilidad: 3776
jheialcazador tiene una reputación que sobrepasa la famajheialcazador tiene una reputación que sobrepasa la famajheialcazador tiene una reputación que sobrepasa la famajheialcazador tiene una reputación que sobrepasa la famajheialcazador tiene una reputación que sobrepasa la famajheialcazador tiene una reputación que sobrepasa la famajheialcazador tiene una reputación que sobrepasa la famajheialcazador tiene una reputación que sobrepasa la famajheialcazador tiene una reputación que sobrepasa la famajheialcazador tiene una reputación que sobrepasa la famajheialcazador tiene una reputación que sobrepasa la fama
Reputación: 188140
Predeterminado Re: Chicago [DVDRip musical Castellano & Ingles 2002 .Avi FJ]

links fuera



__________________

DEJA TU GRANITO DE ARENA EN DÁ LAS GRACIAS
Dale Me gusta
Me puedes Seguir
jheialcazador esta offline  
Tema Cerrado

Etiquetas
2002, avi, castellano, chicago, dvdrip, fj, ingles, musical


Usuarios activos actualmente viendo este tema: 1 (0 miembros y 1 visitantes)
 
Herramientas
Desplegado



El uso horario es GMT -5. La hora actual es: 09:22:20
Powered by vBulletin™ Version 3.8.6
Copyright © 2014 vBulletin Solutions, Inc. All rights reserved.
Traducción por vBHispano
vBulletin Skin by CompletevB
HagalePues.Net 2008 - 2014
SEO by vBSEO ©2011, Crawlability, Inc.