Spectacular [DVDRip musical Castellano 2009 .Avi FJ] - Hagale Pues
Header Hágale Pues
Retroceder   Hagale Pues » Foros de conversación » Basura de Hagalepues
Portal Foro Temas de Hoy Registrarse Buscar




Spectacular [DVDRip musical Castellano 2009 .Avi FJ]



Tema Cerrado
Herramientas
Antiguo 19/10/11, 15:18:26   #1
Baneado
 
Fecha de Ingreso: ago 2010
Ubicación: En tus videos
Edad: 25
Mensajes: 1.220
Temas: 1210
Has agradecido: 1
Has sido agradecido 20 veces en 18 mensajes
Poder de Credibilidad: 0
orlando_2312 tiene motivos para estar orgullosoorlando_2312 tiene motivos para estar orgullosoorlando_2312 tiene motivos para estar orgullosoorlando_2312 tiene motivos para estar orgullosoorlando_2312 tiene motivos para estar orgullosoorlando_2312 tiene motivos para estar orgullosoorlando_2312 tiene motivos para estar orgullosoorlando_2312 tiene motivos para estar orgulloso
Reputación: 1075
Predeterminado Spectacular [DVDRip musical Castellano 2009 .Avi FJ]





Información del archivo en el servidor
Partes: 2
Servidores: FJ
Tamaño: 747 MB

Sinopsis


Nikko (Nolan Gerard Funk) sueña con convertirse en una estrella de 'rock', pero de
momento su carrera no acaba de despegar. Courtney (Tammin Sursok) canta en un
coro cuya solista principal se ha marchado con el grupo rival, por lo que
busca desesperadamente una nueva voz. Cuando Courtney ofrece a Nikko la
posibilidad de formar parte de Spectacular!, éste acaba aceptando
cuando ve la forma de conseguir dinero para grabar una maqueta.

Caps





Ficha Tenica

TÍTULO ORIGINAL Spectacular! (TV)
AÑO 2009
DURACIÓN 93 min.
PAÍS USA
DIRECTOR Robert Iscove
GUIÓN James Krieg
MÚSICA Michael Wandmacher
FOTOGRAFÍA David Moxness
REPARTO Nolan Gerard Funk, Tammin
Sursok, Victoria Justice, Greg
Germann, Brittney Irvin, Harris
Allan, Joel Ballard, Matthew
Bennett, Rukiya Bernard,
Jean-Luc Bilodeau
PRODUCTORA Coproducción EEUU-Canadá;
Pacific Bay Entertainment / Alloy
Productions / Lion Share Productions
GÉNERO Musical | Cine familiar. Adolescencia

Datos de ripeo

General
Complete name : files/O2312SPECTACULARCASTELLANO.avi
Format : AVI
Format/Info : Audio Video Interleave
File size : 747 MiB
Duration : 1h 33mn
Overall bit rate : 1 118 Kbps
Writing application : VirtualDubMod 1.5.10.2 (build 2540/release)
Writing library : VirtualDubMod build 2540/release

Video
ID : 0
Format : MPEG-4 Visual
Format profile : Advanced Simple@L5
Format settings, BVOP : Yes
Format settings, QPel : No
Format settings, GMC : No warppoints
Format settings, Matrix : Default (H.263)
Codec ID : XVID
Codec ID/Hint : XviD
Duration : 1h 33mn
Bit rate : 917 Kbps
Width : 624 pixels
Height : 352 pixels
Display aspect ratio : 16:9
Frame rate : 23.976 fps
Color space : YUV
Chroma subsampling : 4:2:0
Bit depth : 8 bits
Scan type : Progressive
Compression mode : Lossy
Bits/(Pixel*Frame) : 0.174
Stream size : 612 MiB (82%)
Writing library : XviD 1.1.2 (UTC 2006-11-01)

Audio
ID : 1
Format : AC-3
Format/Info : Audio Coding 3
Mode extension : CM (complete main)
Codec ID : 2000
Duration : 1h 33mn
Bit rate mode : Constant
Bit rate : 192 Kbps
Channel(s) : 2 channels
Channel positions : Front: L R
Sampling rate : 48.0 KHz
Bit depth : 16 bits
Compression mode : Lossy
Stream size : 128 MiB (17%)
Alignment : Split accross interleaves
Interleave, duration : 42 ms (1.00 video frame)
Interleave, preload duration : 500 ms

Descarga
FJ

Servidor #1

Parte 1
http://www.filejungle.com/f/3r9jAk/O....avi.part1.rar
Parte 2
http://www.filejungle.com/f/yHPPcY/O....avi.part2.rar

Nota: Si encuentras un link caído avísame para volverlo a subir




orlando_2312 esta offline  
Antiguo 25/03/12, 00:42:42   #2
Moderador:
Zona Audiovisual
 
Avatar de jheialcazador
 
Fecha de Ingreso: mar 2012
Ubicación: BOGOTA
Edad: 23
Mensajes: 871
Temas: 242
Has agradecido: 1.575
Has sido agradecido 1.554 veces en 361 mensajes
Poder de Credibilidad: 3777
jheialcazador tiene una reputación que sobrepasa la famajheialcazador tiene una reputación que sobrepasa la famajheialcazador tiene una reputación que sobrepasa la famajheialcazador tiene una reputación que sobrepasa la famajheialcazador tiene una reputación que sobrepasa la famajheialcazador tiene una reputación que sobrepasa la famajheialcazador tiene una reputación que sobrepasa la famajheialcazador tiene una reputación que sobrepasa la famajheialcazador tiene una reputación que sobrepasa la famajheialcazador tiene una reputación que sobrepasa la famajheialcazador tiene una reputación que sobrepasa la fama
Reputación: 188190
Predeterminado Re: Spectacular [DVDRip musical Castellano 2009 .Avi FJ]

links fuera



__________________

DEJA TU GRANITO DE ARENA EN DÁ LAS GRACIAS
Dale Me gusta
Me puedes Seguir
jheialcazador esta offline  
Tema Cerrado

Etiquetas
2009, avi, castellano, dvdrip, fj, musical, spectacular


Usuarios activos actualmente viendo este tema: 1 (0 miembros y 1 visitantes)
 
Herramientas
Desplegado



El uso horario es GMT -5. La hora actual es: 05:39:39
Powered by vBulletin™ Version 3.8.6
Copyright © 2014 vBulletin Solutions, Inc. All rights reserved.
Traducción por vBHispano
vBulletin Skin by CompletevB
HagalePues.Net 2008 - 2014
SEO by vBSEO ©2011, Crawlability, Inc.