the runaways [DVDRip musical castellano 2010 .Avi FJ] - Hagale Pues
Header Hágale Pues
Retroceder   Hagale Pues » Foros de conversación » Basura de Hagalepues
Portal Foro Temas de Hoy Registrarse Buscar




the runaways [DVDRip musical castellano 2010 .Avi FJ]



Tema Cerrado
Herramientas
Antiguo 14/10/11, 15:43:49   #1
Baneado
 
Fecha de Ingreso: ago 2010
Ubicación: En tus videos
Edad: 25
Mensajes: 1.220
Temas: 1033
Has agradecido: 1
Has sido agradecido 20 veces en 18 mensajes
Poder de Credibilidad: 0
orlando_2312 tiene motivos para estar orgullosoorlando_2312 tiene motivos para estar orgullosoorlando_2312 tiene motivos para estar orgullosoorlando_2312 tiene motivos para estar orgullosoorlando_2312 tiene motivos para estar orgullosoorlando_2312 tiene motivos para estar orgullosoorlando_2312 tiene motivos para estar orgullosoorlando_2312 tiene motivos para estar orgulloso
Reputación: 1075
Predeterminado the runaways [DVDRip musical castellano 2010 .Avi FJ]





Información del archivo en el servidor
Partes: 2
Servidores: FJ
Tamaño: 1.11 gb

Sinopsis
Los Angeles, año 1975. Joan Jett (Kristen Stewart) y Cherie Currie (Dakota Fanning)
son dos chicas jóvenes del valle con el punk en sus venas, que se conocen y
deciden formar una banda... Biopic del grupo musical de rock femenino de
los años setenta "The Runaways" dirigido por la realizadora de videos
y fotógrafa Floria Sigismondi.

Caps





Ficha Tenica

TÍTULO ORIGINAL The Runaways
AÑO 2010
DURACIÓN 109 min.
PAÍS Estados Unidos
DIRECTOR Floria Sigismondi
GUIÓN Floria Sigismondi
MÚSICA Lillian Berlin
FOTOGRAFÍA Benoît Debie
REPARTO Kristen Stewart, Dakota Fanning,
Scout Taylor-Compton, Alia Shawkat, Tatum
O'Neal, Michael Shannon, Brett Cullen,
Danielle Riley Keough, Stella Maeve, Hannah Marks
PRODUCTORA Apparition / River Road Entertainment
GÉNERO Musical. Drama | Biográfico.
Años 70. Música. Cine independiente USA

Datos de ripeo

General
Complete name : files/O2312THERUNAWAYSCASTELLANO.avi
Format : AVI
Format/Info : Audio Video Interleave
Format profile : OpenDML
File size : 1.11 GiB
Duration : 1h 42mn
Overall bit rate : 1 552 Kbps
Writing application : Lavf52.78.4

Video
ID : 0
Format : MPEG-4 Visual
Format profile : Advanced Simple@L5
Format settings, BVOP : Yes
Format settings, QPel : No
Format settings, GMC : No warppoints
Format settings, Matrix : Default (H.263)
Muxing mode : Packed bitstream
Codec ID : XVID
Codec ID/Hint : XviD
Duration : 1h 42mn
Bit rate : 151 Kbps
Width : 720 pixels
Height : 306 pixels
Display aspect ratio : 2.35:1
Frame rate : 25.000 fps
Color space : YUV
Chroma subsampling : 4:2:0
Bit depth : 8 bits
Scan type : Progressive
Compression mode : Lossy
Bits/(Pixel*Frame) : 0.027
Stream size : 110 MiB (10%)
Writing library : XviD 1.2.1 (UTC 2008-12-04)

Audio
ID : 1
Format : AC-3
Format/Info : Audio Coding 3
Mode extension : CM (complete main)
Codec ID : 2000
Duration : 9mn 55s
Bit rate mode : Constant
Bit rate : 448 Kbps
Channel(s) : 6 channels
Channel positions : Front: L C R, Side: L R, LFE
Sampling rate : 48.0 KHz
Bit depth : 16 bits
Compression mode : Lossy
Stream size : 31.8 MiB (3%)
Alignment : Aligned on interleaves
Interleave, duration : 50 ms (1.24 video frame)

Descarga
FJ

Servidor #1

Parte 1
http://www.filejungle.com/f/yWcZkk/O....avi.part1.rar
Parte 2
http://www.filejungle.com/f/gzur3d/O....avi.part2.rar

Nota: Si encuentras un link caído avísame para volverlo a subir




orlando_2312 esta offline  
Antiguo 25/03/12, 00:44:51   #2
Moderador:
Zona Audiovisual
 
Avatar de jheialcazador
 
Fecha de Ingreso: mar 2012
Ubicación: BOGOTA
Edad: 23
Mensajes: 869
Temas: 235
Has agradecido: 1.575
Has sido agradecido 1.554 veces en 361 mensajes
Poder de Credibilidad: 3777
jheialcazador tiene una reputación que sobrepasa la famajheialcazador tiene una reputación que sobrepasa la famajheialcazador tiene una reputación que sobrepasa la famajheialcazador tiene una reputación que sobrepasa la famajheialcazador tiene una reputación que sobrepasa la famajheialcazador tiene una reputación que sobrepasa la famajheialcazador tiene una reputación que sobrepasa la famajheialcazador tiene una reputación que sobrepasa la famajheialcazador tiene una reputación que sobrepasa la famajheialcazador tiene una reputación que sobrepasa la famajheialcazador tiene una reputación que sobrepasa la fama
Reputación: 188190
Predeterminado Re: the runaways [DVDRip musical castellano 2010 .Avi FJ]




__________________

DEJA TU GRANITO DE ARENA EN DÁ LAS GRACIAS
Dale Me gusta
Me puedes Seguir
jheialcazador esta offline  
Tema Cerrado

Etiquetas
2010, avi, castellano, dvdrip, fj, musical, runaways


Usuarios activos actualmente viendo este tema: 1 (0 miembros y 1 visitantes)
 
Herramientas
Desplegado



El uso horario es GMT -5. La hora actual es: 21:58:04
Powered by vBulletin™ Version 3.8.6
Copyright © 2014 vBulletin Solutions, Inc. All rights reserved.
Traducción por vBHispano
vBulletin Skin by CompletevB
HagalePues.Net 2008 - 2014
SEO by vBSEO ©2011, Crawlability, Inc.