el canto del loco [DVDRip musical Español/España 2009 .Avi WU& FJ ] - Hagale Pues
Header Hágale Pues
Retroceder   Hagale Pues » Foros de conversación » Basura de Hagalepues
Portal Foro Temas de Hoy Registrarse Buscar




el canto del loco [DVDRip musical Español/España 2009 .Avi WU& FJ ]



Tema Cerrado
Herramientas
Antiguo 07/10/11, 17:58:36   #1
Baneado
 
Fecha de Ingreso: ago 2010
Ubicación: En tus videos
Edad: 24
Mensajes: 1.220
Temas: 1210
Has agradecido: 1
Has sido agradecido 20 veces en 18 mensajes
Poder de Credibilidad: 0
orlando_2312 tiene motivos para estar orgullosoorlando_2312 tiene motivos para estar orgullosoorlando_2312 tiene motivos para estar orgullosoorlando_2312 tiene motivos para estar orgullosoorlando_2312 tiene motivos para estar orgullosoorlando_2312 tiene motivos para estar orgullosoorlando_2312 tiene motivos para estar orgullosoorlando_2312 tiene motivos para estar orgulloso
Reputación: 1075
Predeterminado el canto del loco [DVDRip musical Español/España 2009 .Avi WU& FJ ]





Información del archivo en el servidor
Partes: 2
Servidores: WU& FJ
Tamaño: 778 MB

Sinopsis
En la línea de "Shine the Light" o "U2 3D", la película
enseñará la vida de los miembros (del grupo), tras el
escenario. Es decir, cómo se preparan, las
entrevistas que suelen dar, su modo de
vivir, las giras y muchas más cosas
exclusivas. El film tendrá un
estreno limitado en salas
3D y sólo podrá verse
entre los días 2 y
11 de enero, ambos
incluidos.

Caps





Ficha Tenica

TÍTULO ORIGINAL: El Canto del Loco: La película
AÑO: 2009
DURACIÓN: 97 min.
PAÍS: ESPAÑA
DIRECTOR: Félix Viscarret
REPARTO: Dani Martín, David Otero, Chema Ruiz
GÉNERO: Musical | Biográfico

Datos de ripeo

General
Complete name : files/O2312ELCANTODELLOCOCAS.avi
Format : AVI
Format/Info : Audio Video Interleave
File size : 828 MiB
Duration : 1h 29mn
Overall bit rate : 1 289 Kbps
Writing application : Lavf52.0.0

Video
ID : 0
Format : xvid
Codec ID : xvid
Duration : 1h 29mn
Bit rate : 1 212 Kbps
Width : 702 pixels
Height : 442 pixels
Display aspect ratio : 1.588
Frame rate : 25.000 fps
Bits/(Pixel*Frame) : 0.156
Stream size : 778 MiB (94%)

Audio
ID : 1
Format : MPEG Audio
Format version : Version 1
Format profile : Layer 3
Mode : Joint stereo
Mode extension : MS Stereo
Codec ID : 55
Codec ID/Hint : MP3
Duration : 1h 29mn
Bit rate mode : Constant
Bit rate : 64.0 Kbps
Channel(s) : 2 channels
Sampling rate : 48.0 KHz
Compression mode : Lossy
Stream size : 41.1 MiB (5%)
Alignment : Aligned on interleaves
Interleave, duration : 24 ms (0.60 video frame)
Interleave, preload duration : 24 ms

Descarga
WU& FJ

Servidor #1

Parte 1
http://www.filejungle.com/f/HtNDhQ/O....avi.part1.rar
Parte 2
http://www.filejungle.com/f/pRjyD3/O....avi.part2.rar
Parte 3
http://www.wupload.com/file/321934729
Parte 4
http://www.wupload.com/file/321931505

Nota: Si encuentras un link caído avísame para volverlo a subir




orlando_2312 esta offline  
Antiguo 25/03/12, 00:46:00   #2
Moderador:
Zona Audiovisual
 
Avatar de jheialcazador
 
Fecha de Ingreso: mar 2012
Ubicación: BOGOTA
Edad: 23
Mensajes: 859
Temas: 230
Has agradecido: 1.568
Has sido agradecido 1.520 veces en 352 mensajes
Poder de Credibilidad: 3758
jheialcazador tiene una reputación que sobrepasa la famajheialcazador tiene una reputación que sobrepasa la famajheialcazador tiene una reputación que sobrepasa la famajheialcazador tiene una reputación que sobrepasa la famajheialcazador tiene una reputación que sobrepasa la famajheialcazador tiene una reputación que sobrepasa la famajheialcazador tiene una reputación que sobrepasa la famajheialcazador tiene una reputación que sobrepasa la famajheialcazador tiene una reputación que sobrepasa la famajheialcazador tiene una reputación que sobrepasa la famajheialcazador tiene una reputación que sobrepasa la fama
Reputación: 187340
Predeterminado Re: el canto del loco [DVDRip musical Español/España 2009 .Avi WU& FJ ]

links fuera



__________________

DEJA TU GRANITO DE ARENA EN DÁ LAS GRACIAS
Dale Me gusta
Me puedes Seguir
jheialcazador esta offline  
Tema Cerrado

Etiquetas
2009, avi, canto, del, dvdrip, el, español or españa, fj, loco, musical, wuand


Usuarios activos actualmente viendo este tema: 1 (0 miembros y 1 visitantes)
 
Herramientas
Desplegado



El uso horario es GMT -5. La hora actual es: 19:11:45
Powered by vBulletin™ Version 3.8.6
Copyright © 2014 vBulletin Solutions, Inc. All rights reserved.
Traducción por vBHispano
vBulletin Skin by CompletevB
HagalePues.Net 2008 - 2014
SEO by vBSEO ©2011, Crawlability, Inc.